#TITLE:NO.3(Feat. Sol Flower);
#SUBTITLE:;
#ARTIST:Baechigi;
#TITLETRANSLIT:;
#SUBTITLETRANSLIT:;
#ARTISTTRANSLIT:;
#CREDIT:;
#BANNER:NO.3(Feat. Sol Flower)_logo.jpg;
#BACKGROUND:NO.3(Feat. Sol Flower)_bg.jpg;
#LYRICSPATH:;
#CDTITLE:Lan.png;
#MUSIC:NO.3(Feat. Sol Flower).mp3;
#OFFSET:-0.035;
#SAMPLESTART:46.875;
#SAMPLELENGTH:12.000;
#SELECTABLE:YES;
#BPMS:0.000=128.000;
#STOPS:;
#BGCHANGES:;
// cache tags:
#FIRSTBEAT:4.000;
#LASTBEAT:223.000;
#SONGFILENAME:Songs/lan sky/NO.3(Feat. Sol Flower)/NO.3(Feat. Sol Flower).sm;
#HASMUSIC:1;
#HASBANNER:1;
#MUSICLENGTH:108.632;
// end cache tags

//---------------dance-single - sky----------------
#NOTES:
     dance-single:
     sky:
     Hard:
     9:
     0.797,0.898,1.000,0.000,0.156,383.000,208.000,0.000,0.000,15.000:

0000
0000
0000
0000
,
0100
0000
0000
0001
0000
0000
0000
0000
,
0100
0000
0000
0001
0000
0100
1000
0100
,
1000
0000
0000
0010
0000
0000
0000
0000
,
0101
0000
0000
0000
0000
0000
1100
0000
0100
1000
0100
1000
0100
0000
1000
0000
,
0110
0000
0101
0000
1010
0100
1010
0001
,
1001
0000
0110
0000
1010
0100
0101
0010
,
1100
0000
0011
0000
1100
0010
0101
0010
,
1100
0000
0101
0000
0110
0001
1010
0100
,
1001
0000
0110
0000
0011
0100
1100
0010
,
0011
0000
1100
0000
0110
0010
0101
0010
,
1100
0000
0101
0000
1010
0100
1001
0010
,
0110
0000
1010
0000
0011
0100
1010
0100
,
0110
0000
0011
0000
1010
0100
1100
0010
,
0110
0000
1001
0000
1100
0010
0101
0010
,
0110
0000
1010
0000
0110
0001
0011
0100
,
1001
0000
1010
0000
0101
0010
1100
0010
,
0110
0000
0101
0000
1010
0100
1001
0010
,
0110
0000
1010
0000
0011
0100
1010
0100
,
0101
0000
1100
0000
0110
0001
1010
0100
,
1100
0000
1010
0000
0101
1000
0011
0100
,
1001
0000
0110
0000
1100
0100
1001
0010
,
0101
0000
0110
0000
1010
0100
1100
0010
,
0011
0000
0110
0000
1010
0100
0110
0001
,
1010
0000
0110
0000
1100
0010
0011
1000
,
0110
0000
0101
0000
1010
0100
0110
0100
,
1100
0000
0011
0000
1010
0100
1100
0010
,
0110
0000
1001
0000
1100
0010
0101
0010
,
0110
0000
0000
0000
1001
0000
0000
0000
0110
0000
0010
0000
0101
0101
0010
0000
,
1110
0000
1110
0000
1110
0000
1110
0110
,
0111
0000
0111
0000
0111
0000
0111
0011
,
1101
0000
1101
0000
1101
0000
1101
0110
,
1011
0000
0000
0000
1011
0000
0000
0000
1011
0000
0110
0110
0110
0110
0110
0110
,
0110
1000
0101
0010
1100
0010
0110
1000
,
0011
0100
1010
0010
1100
0001
0011
0100
,
1010
0010
1001
1000
0110
0001
0101
0010
,
1100
0010
0110
0001
0101
0010
1100
0100
,
1001
0100
0110
1000
0101
0010
1100
0010
,
0101
0010
1100
0010
0110
0001
0011
0100
,
1001
0010
1100
0010
0110
0001
0101
0010
,
1100
0000
0001
0000
0110
0000
1000
0000
0101
0000
0100
0000
0011
0011
0011
0011
,
0011
1000
0110
0001
0101
0010
1100
0001
,
0110
1000
0011
0100
1001
0010
1100
0010
,
0101
1000
0110
0010
0101
0010
1100
0001
,
0101
0010
1100
0001
0110
1000
1001
0010
,
0110
0001
0101
0010
1100
1000
0101
0010
,
1100
0001
0110
0010
0101
1000
0110
0001
,
0011
1000
0110
0001
1001
0100
1100
0010
,
0110
0000
0001
0000
1001
0000
0100
0000
1010
0000
0001
0000
0110
0110
0110
0110
,
0110
0000
0000
0000
1010
0000
0000
0000
1000
0100
1000
0100
1001
0000
0000
0000
,
1000
0100
1000
0000
1010
0000
0000
0000
0100
0010
0100
0000
1010
0000
0000
0000
,
1000
0100
0010
0100
1001
0000
0000
0000
0100
0010
0001
0100
1010
0000
0000
0000
,
0010
0100
1000
0001
0110
0000
0000
0000
0001
0010
0100
0010
1100
0000
0000
0000
,
0100
0010
0100
0010
1100
0000
0000
0000
0010
0001
0010
1000
0110
0000
0000
0000
,
0100
0010
0100
0010
1100
0000
0000
0000
0010
0001
0010
0100
1010
0000
0000
0000
,
0010
0001
0100
0001
1010
0000
0000
0000
0010
0100
1000
0001
0110
0000
0000
0000
;
